#TITLE:She Is My Sin;
#SUBTITLE:;
#ARTIST:Unknown artist;
#TITLETRANSLIT:;
#SUBTITLETRANSLIT:;
#ARTISTTRANSLIT:;
#CREDIT:;
#BANNER:;
#BACKGROUND:;
#LYRICSPATH:;
#CDTITLE:;
#MUSIC:She Is My Sin.mp3;
#OFFSET:-0.400;
#SAMPLESTART:99.980;
#SAMPLELENGTH:12.000;
#SELECTABLE:YES;
#BPMS:0.000=183.662;
#STOPS:;
#BGCHANGES:;
// cache tags:
#FIRSTBEAT:0.000;
#LASTBEAT:712.500;
#SONGFILENAME:Songs/nhac/She Is My Sin[vapid]/She Is My Sin.sm;
#HASMUSIC:1;
#HASBANNER:0;
#MUSICLENGTH:237.635;
// end cache tags

//---------------dance-single - Blank----------------
#NOTES:
     dance-single:
     Blank:
     Hard:
     11:
     1.000,1.000,1.000,0.168,1.000,1915.000,246.000,40.000,0.000,9.000:

1010
1010
1010
0100
0001
0010
1000
0010
,
0001
0010
0100
1000
0010
0110
0000
1100
,
0011
0011
0011
1000
0100
0001
0010
0001
,
0100
0001
1000
0010
0001
1001
0000
0110
,
1001
1001
1001
0000
0000
0000
1010
0000
,
0101
0011
1001
0110
,
0001
0001
0001
0001
0011
0110
1100
1001
,
0100
0010
0001
0010
0100
1000
0001
0100
0010
1000
0100
0010
0001
0000
0000
0000
,
0011
0000
0100
0101
1010
0000
1001
0010
,
0101
0000
1010
0010
0101
0000
0101
0000
,
1100
0000
0010
1010
0101
0000
1001
0100
,
1010
0000
0101
0100
0011
0000
0011
0000
,
1010
1000
1000
1000
,
1010
0110
0101
0011
,
0001
0001
0001
0001
1010
1001
0011
0101
,
1000
0010
0100
0001
0010
0100
1000
0001
0010
0100
0010
0001
0010
0100
1000
0000
,
1010
0000
0001
0011
1001
0000
0110
1000
,
1001
0000
1010
0010
0011
0000
0011
0000
,
0101
0000
1000
1100
1001
0000
0110
0001
,
1001
0000
1100
0100
0101
0000
0101
0000
,
1010
1000
1000
1000
,
1100
1001
0011
1010
,
0001
0001
0001
0001
1001
0110
1010
0101
,
0001
1000
0010
0100
0001
1000
0100
0010
0001
0010
0100
1000
0010
0100
0001
0000
,
0101
0000
1000
0010
0001
0100
0010
1000
0001
0100
0010
1000
0100
0010
0001
1000
,
0001
0100
0010
1000
0001
0100
0010
0100
0001
1000
0100
0010
0001
0010
0100
1000
,
0001
0100
0010
1000
0001
0010
0100
0010
0100
1000
0010
0100
0001
1000
0010
0100
,
0010
1000
0001
0010
0100
1000
0001
0100
0010
1000
0100
1000
0001
0010
0001
0100
,
0011
0000
0100
0101
1001
0000
1001
0010
,
0110
0000
1010
0010
0101
0000
0101
0000
,
0010
0000
1000
0001
0100
0010
1000
0100
0010
0001
1000
0100
1000
0010
0100
0001
,
0010
0001
0100
0010
1000
0001
0010
0100
1000
0001
0100
0010
1000
0001
0100
0010
,
1000
0001
0100
0010
1000
0001
1000
0010
1000
0001
0010
0001
1000
0100
1000
0010
,
0100
0001
1000
0001
0100
0010
1000
0001
0010
0100
1000
0001
1000
0010
0100
0001
,
0100
0010
0100
0001
0100
0010
0100
0001
0100
0010
0100
0001
0100
0010
0100
0001
,
0100
0010
1000
0001
0010
0100
1000
0010
0100
0000
0000
0000
0000
0000
0100
0000
,
0001
0000
0010
1000
0100
1000
0001
0010
0100
0010
0001
1000
0010
0100
0001
0010
,
0001
1000
0100
0010
0100
1000
0001
0100
0010
0100
0001
1000
0100
1000
0001
0100
,
0010
0100
0001
0010
0100
1000
0001
0010
0001
0100
0010
1000
0001
1000
0010
0100
,
0010
1000
0001
0010
0001
1000
0001
0100
0010
1000
0001
1000
0010
0100
0001
0010
,
1100
0000
0010
1010
1001
0000
1001
0100
,
1010
0000
0101
0100
1010
0000
1010
0000
,
0010
0100
1000
0001
0010
0001
1000
0010
0100
0001
1000
0001
1000
0100
0010
0001
,
0100
0001
1000
0100
1000
0001
0100
0001
1000
0010
0100
0001
1000
0001
0100
0010
,
1000
0100
0010
0001
1000
0100
0010
0100
1000
0001
0100
0010
1000
0001
0010
0001
,
1000
0010
0100
0001
1000
0100
0010
0001
1000
0010
0100
0010
1000
0001
1000
0100
,
0010
1000
0010
0100
0010
1000
0010
0100
0010
1000
0010
0100
0021
0000
0000
0000
,
1100
0101
1001
0131
,
0100
0010
1010
0000
0010
0100
0101
0000
,
0001
0100
0110
0000
0001
1000
1010
0000
,
1000
0001
0101
0000
0100
0010
1010
0000
,
1000
0010
0110
0000
1000
0001
1001
0000
,
1000
0001
0101
0000
0010
0100
0101
0000
,
0100
0001
0101
0000
0100
1000
1010
0000
,
1010
1000
1000
0101
0001
0001
0000
0100
,
0220
0000
0000
0330
,
0001
0100
0010
1000
0010
1000
0100
0010
0001
1000
0100
1000
0001
0010
0100
0010
,
0001
0100
0010
1000
0100
0010
0100
1000
0001
0010
0001
1000
0010
0100
0001
1000
,
0100
1000
0001
0010
0100
1000
0001
0010
0001
0100
0010
1000
0001
0010
0100
1000
,
0001
0010
0001
0100
0001
1000
0001
0100
0001
0010
0001
0100
0001
1000
0001
0100
,
0001
0010
0100
1000
0001
0010
0001
1000
0010
0100
0001
0100
0010
1000
0100
0010
,
0100
0010
0001
1000
0100
1000
0010
0100
0010
1000
0001
1000
0001
0100
0010
1000
,
0001
0100
0010
1000
0100
1000
0001
0010
0001
0100
0010
1000
0100
0010
0001
0100
,
0010
1000
0010
1000
0010
1000
0010
1000
0001
0100
0001
0100
0001
0100
0001
0100
,
0001
1000
0100
0010
0100
1000
0001
0010
0001
0100
0010
1000
0100
0010
0100
1000
,
0001
0010
0001
1000
0010
1000
0100
0010
0001
0100
0010
0100
0001
1000
0100
1000
,
0001
0100
0001
0100
0010
1000
0100
0010
0001
0100
0001
1000
0010
1000
0001
0010
,
1000
0001
1000
0010
1000
0100
1000
0010
1000
0001
1000
0010
1000
0100
1000
0010
,
1000
0001
0100
0010
1000
0001
1000
0100
0010
0001
0100
0010
1000
0001
0100
0010
,
1000
0010
0001
0100
0010
1000
0010
1000
0001
0100
0001
1000
0100
0010
0100
1000
,
0001
0010
0001
0100
0010
1000
0100
1000
0100
0010
0001
0100
0010
1000
0001
1000
,
0001
0100
0001
0100
0001
0100
0001
1000
0010
1000
0010
1000
0010
1000
0010
1000
,
0101
0000
1000
1100
1001
0000
0110
0001
,
1001
0000
0110
0100
1100
0000
1100
0000
,
1010
0000
0001
0011
1010
0000
0110
1000
,
1001
0000
0110
0010
0011
0000
0011
0000
,
1100
1000
1000
1000
,
0011
1001
1100
0101
,
0001
0001
0001
0001
1001
1010
0110
1001
,
0001
0100
0001
0100
0001
0100
0010
1000
0010
1000
0010
1000
0010
1000
0010
0000
,
0101
0000
0100
0010
0001
0100
0010
1000
0001
0100
0010
1000
0100
0010
0001
1000
,
0001
0100
0010
1000
0001
0100
0010
0100
0001
1000
0100
0010
0001
0010
0100
1000
,
0001
0100
0010
1000
0001
0010
0100
0010
0100
1000
0010
0100
0001
1000
0010
0100
,
0010
1000
0001
0010
0100
1000
0001
0100
0010
1000
0100
1000
0001
0010
0001
0100
,
0011
0000
0100
0101
1010
0000
1001
0010
,
0101
0000
1010
0010
0101
0000
0101
0000
,
0010
0000
1000
0001
0100
0010
1000
0100
0010
0001
1000
0100
1000
0010
0100
0001
,
0010
0001
1000
0010
1000
0100
0010
0100
1000
0001
0100
0001
1000
0010
0100
0010
,
1000
0001
0100
0010
1000
0001
1000
0010
0100
0001
0100
0001
1000
0100
1000
0010
,
0100
0001
1000
0001
0100
0010
1000
0001
0010
0100
1000
0100
1000
0010
0100
0001
,
0100
0001
0100
0010
0100
0001
0100
0010
0100
0001
0100
0010
1200
0000
0000
0000
,
0011
1010
1001
1310
,
0010
0100
0101
0000
0100
0010
1010
0000
,
1000
0010
0110
0000
0001
0100
0101
0000
,
0001
1000
1010
0000
0010
0100
0101
0000
,
0010
0100
0110
0000
1000
0001
1001
0000
,
0010
1000
1010
0000
0100
0010
0011
0000
,
0001
1000
1010
0000
0100
0001
0101
0000
,
0101
0001
0001
1010
1000
1000
0000
0010
,
1000
0001
1000
0001
1000
0001
1000
0001
0100
0010
0100
0010
0100
0010
0100
0010
,
1001
0000
0100
0001
0100
0001
0010
0100
1000
0001
0010
0001
1000
0100
0010
0100
,
1000
0010
1000
0001
0010
0100
0010
0001
1000
0100
1000
0001
0100
0010
1000
0001
,
0010
0001
1000
0100
0010
0001
1000
0100
1000
0010
0100
0001
1000
0100
0010
0001
,
1000
0100
1000
0010
1000
0001
1000
0010
1000
0100
1000
0010
1000
0001
1000
0010
,
1000
0100
0010
0001
1000
0100
1000
0001
0100
0010
1000
0010
0100
0001
0010
0100
,
0010
0100
1000
0001
0010
0001
1000
0010
0100
0001
1000
0001
1000
0010
0100
0001
,
1000
0010
0100
0001
0010
0001
1000
0100
1000
0010
0100
0001
0010
0100
1000
0010
,
0100
0001
0100
0001
0100
0001
0100
0001
1000
0010
1000
0010
1000
0010
1000
0010
,
1000
0001
0010
0100
0010
0001
1000
0001
1000
0010
0100
0001
0010
0100
0010
0001
,
1000
0100
1000
0010
0100
0001
0010
0100
1000
0001
0100
0010
1000
0001
0010
0001
,
1000
0010
1000
0010
0100
0001
0010
0100
1000
0010
1000
0001
0100
0001
1000
0100
,
0001
1000
0001
0100
0001
0010
0001
0100
0001
1000
0001
0100
0001
0010
0001
0100
,
0001
1000
0010
0100
0001
1000
0001
0010
0100
1000
0010
0100
0001
1000
0010
0100
,
0001
0100
1000
0010
0100
0001
0100
0001
1000
0010
0100
0001
0010
0100
0010
0001
,
1000
0100
1000
0010
0100
0001
1000
0001
0010
0100
1000
0010
0100
0001
1000
0001
,
1000
0010
1000
0010
1000
0010
1000
0001
0100
0001
0100
0001
0100
0001
0100
0000
,
0001
1000
0001
0000
0100
0000
0010
0000
0001
0000
1000
0000
0100
0000
0010
0000
,
0100
0001
0010
0100
0010
1000
0001
0010
,
0100
0010
0100
0000
1000
0000
0001
0000
0010
0000
0100
0000
0010
0001
1000
0000
,
0010
0001
0100
0010
1000
0100
0010
0100
,
0001
0100
0001
0000
1000
0000
0010
0000
0100
0000
0001
0000
0010
0000
0100
0000
,
1000
0100
0010
0001
1000
0100
0010
0001
1000
0100
0010
0001
1000
0100
0010
0001
,
1000
0000
0000
0010
0000
0000
0100
0000
0000
0001
0000
0000
0110
0000
0000
0000
1010
0000
0000
0000
0101
0000
0000
0000
,
0011
1000
0100
1000
0100
1000
0100
0010
0001
0010
0001
0010
0001
0010
0001
0000
,
1001
0000
0100
0101
1001
0000
0010
1010
,
1001
0000
0001
1001
1010
0000
1000
1001
,
0101
0000
0000
0000
1000
0100
0010
0001
0100
0010
1000
0001
0010
0100
1000
0000
,
0202
0303
2020
3030
0220
0330
2002
3003
,
1001
0000
0100
0101
1001
0000
0010
1010
,
1001
0000
0001
1001
1010
0000
1000
1001
,
0101
0000
2002
3003
0220
0330
2020
3030
,
0202
0000
0303
0000
1000
0001
0100
0010
1000
0100
0010
0001
0010
0100
1001
0000
,
1001
0000
0001
0011
1001
0000
1000
1100
,
1001
0000
0010
1010
1100
0000
0100
0110
,
0101
0000
0000
0000
0020
0030
2020
3030
2002
3003
0000
0000
0200
0300
0202
0303
,
2020
0000
3232
0303
1010
0000
0001
0100
0010
1000
0100
0010
0001
0010
0100
0000
,
0101
0000
0001
0101
1001
0000
1000
1010
,
1001
0000
0001
0011
0101
0000
1000
1100
,
1010
0000
0001
1001
0101
0000
1000
1001
,
1010
0000
0001
0110
1010
0000
0000
0000
,
1000
0010
1000
0001
0010
0001
0010
0100
0010
0100
1000
0100
0010
0001
0010
0100
,
0010
0100
1000
0100
1000
0100
0010
0001
0010
0001
0100
0010
0100
0010
1000
0001
,
1000
0010
1000
0100
0010
0001
0100
0010
0100
0010
1000
0100
1000
0100
0010
0100
,
0010
0001
1000
0100
1000
0100
0010
0001
0010
0001
0010
0100
0010
0100
1000
0001
,
0100
0001
0100
0010
1000
0010
1000
0001
1000
0001
0010
0001
0010
1000
0010
1000
,
0100
1000
0100
0010
0001
0010
0001
0100
0001
0100
0010
1000
0010
1000
0001
0100
,
0001
0100
0010
0100
0010
1000
0001
1000
0001
0100
0001
0100
0010
1000
0010
1000
,
0100
1000
0100
0010
0100
0010
0001
1000
0010
1000
0010
0100
0001
0100
0001
0000
,
1000
0001
1000
0000
0000
0000
1001
0000
0000
0000
0000
0000
0101
0000
0000
0000
,
0000
1000
1010
0000
0110
1000
1010
0100
,
0101
0000
0000
0000
,
0000
0000
0000
0000
,
0000
0000
0000
0000
,
0000
0000
0000
0000
,
0000
0000
0000
0000
,
0000
0000
0000
0000
,
0000
0000
0000
0000
,
0000
1001
1010
0101
,
0001
0100
0010
1000
0010
1000
0100
0010
0001
1000
0100
1000
0001
0010
0100
0010
,
0001
0100
0010
1000
0100
0010
0100
1000
0001
0010
0001
1000
0010
0100
0001
1000
,
0100
1000
0001
0010
0100
1000
0001
0010
0001
0100
0010
1000
0001
0010
0100
1000
,
0001
0010
0001
0100
0001
1000
0001
0100
0001
0010
0001
0100
0001
1000
0001
0100
,
0001
0010
0100
1000
0001
0010
0001
1000
0010
0100
0001
0100
0010
1000
0100
0010
,
0100
0010
0001
1000
0100
1000
0010
0100
0010
1000
0001
1000
0001
0100
0010
1000
,
0001
0100
0010
1000
0100
1000
0001
0010
0001
0100
0010
1000
0100
0010
0001
0100
,
0010
1000
0010
1000
0010
1000
0010
1000
0001
0100
0001
0100
0001
0100
0001
0100
,
0001
1000
0100
0010
0100
1000
0001
0010
0001
0100
0010
1000
0100
0010
0100
1000
,
0001
0010
0001
1000
0010
1000
0100
0010
0001
0100
0010
0100
0001
1000
0100
1000
,
0001
0100
0001
0100
0010
1000
0100
0010
0001
0100
0001
1000
0010
1000
0001
0010
,
1000
0001
1000
0010
1000
0100
1000
0010
1000
0001
1000
0010
1000
0100
1000
0010
,
1000
0001
0100
0010
1000
0001
1000
0100
0010
0001
0100
0010
1000
0001
0100
0010
,
1000
0010
0001
0100
0010
1000
0010
1000
0001
0100
0001
1000
0100
0010
0100
1000
,
0001
0010
0001
0100
0010
1000
0100
1000
0100
0010
0001
0100
0010
1000
0001
1000
,
0001
0100
0001
0100
0001
0100
0001
1000
0010
1000
0010
1000
0010
1000
0010
1000
,
0101
0000
1000
0010
1010
0000
0001
0100
,
0101
0000
0010
1000
1010
0000
0100
0010
,
0101
0001
0001
1000
1010
0000
0110
0000
,
0202
0303
0220
0330
2200
3300
2002
3003
,
0110
0110
0000
0000
0000
0000
0000
0000
;
